Category: Tutorial   
Download Now

Stefan Ciancio - Turnkey Profit Machines

Stefan Ciancio - Turnkey Profit Machines
WEBRip | English | MP4 | 1870 x 906 | AVC ~568 kbps | 25 fps
AAC | 118 Kbps | 48.0 KHz | 1 channel | 02:47:08 | 901 MB
Genre: eLearning Video / Business, Sales, Marketing

Learn how you can build a proven $10,000+ per month profit machine even if you have no list, no product and no experience or tech skills. Simply follow the simple steps that we outline for you and get ready for a flood of sales and commissions. Imagine how nice it will feel when you can simply turn this system on and make 3k/mo, 5k/mo, or even 10k/month online. You get to be in charge of how much income you hit per month.
and You can watch my other last:



General
Complete name : 3-3 How To Setup Your First Ad.mp4
Format

: MPEG-4
Format profile : Base Media / Version 2
Codec ID : mp42
File size : 55.3 MiB
Duration : 11mn 13s
Overall bit rate mode : Variable
Overall bit rate : 690 Kbps
Encoded date : UTC 2016-09-29 05:51:55
Tagged date : UTC 2016-09-29 05:51:55

Video
ID

: 1
Format

: AVC
Format/Info : Advanced Video Codec
Format profile : [email protected]
Format settings, CABAC : Yes
Format settings, ReFrames : 4 frames
Codec ID : avc1
Codec ID/Info : Advanced Video Coding
Duration : 11mn 13s
Bit rate : 568 Kbps
Width

: 1 870 pixels
Height

: 906 pixels
Display aspect ratio : 2.064
Frame rate mode : Constant
Frame rate : 25.000 fps
Color space : YUV
Chroma subsampling : 4:2:0
Bit depth : 8 bits
Scan type : Progressive
Bits/(Pixel*Frame) : 0.013
Stream size : 45.6 MiB (82%)
Writing library : x264 core 148 r10 3f5ed56
Encoding settings : cabac=1 / ref=4 / deblock=1:0:0 / analyse=0x3:0x113 / me=umh / subme=8 / psy=1 / psy_rd=1.00:0.00 / mixed_ref=1 / me_range=16 / chroma_me=1 / trellis=1 / 8x8dct=1 / cqm=0 / deadzone=21,11 / fast_pskip=1 / chroma_qp_offset=-2 / threads=28 / lookahead_threads=4 / sliced_threads=0 / nr=0 / decimate=1 / interlaced=0 / bluray_compat=0 / stitchable=1 / constrained_intra=0 / bframes=3 / b_pyramid=2 / b_adapt=2 / b_bias=0 / direct=3 / weightb=1 / open_gop=0 / weightp=2 / keyint=infinite / keyint_min=25 / scenecut=40 / intra_refresh=0 / rc_lookahead=50 / rc=crf / mbtree=1 / crf=20.0 / qcomp=0.60 / qpmin=5 / qpmax=69 / qpstep=4 / vbv_maxrate=4950 / vbv_bufsize=13500 / crf_max=0.0 / nal_hrd=none / filler=0 / ip_ratio=1.40 / aq=1:1.00
Encoded date : UTC 2016-09-29 05:51:55
Tagged date : UTC 2016-09-29 05:51:55
Color range : Limited
Color primaries : BT.709
Transfer characteristics : BT.709
Matrix coefficients : BT.709

Audio
ID

: 2
Format

: AAC
Format/Info : Advanced Audio Codec
Format profile : LC
Codec ID : 40
Duration : 11mn 13s
Bit rate mode : Variable
Bit rate : 118 Kbps
Channel(s) : 2 channels
Channel(s)_Original : 1 channel
Channel positions : Front: C
Sampling rate : 48.0 KHz
Compression mode : Lossy
Stream size : 9.43 MiB (17%)
Encoded date : UTC 2016-09-29 05:51:55
Tagged date : UTC 2016-09-29 05:51:55


Stefan Ciancio - Turnkey Profit Machines


Stefan Ciancio - Turnkey Profit Machines

Stefan Ciancio - Turnkey Profit Machines


DOWNLOAD:


Direct Download

Tags: stefan, ciancio, turnkey, profit, machines

Stefan Ciancio - Turnkey Profit Machines Fast Download via Rapidshare Hotfile Fileserve Filesonic Megaupload, Stefan Ciancio - Turnkey Profit Machines Torrents and Emule Download or anything related.
Author: bestrelease  |  Comments: 0  |  Views: 0  
Dear visitor, welcome here, but you are visiting our website as an unregistered user.
We recommend you Register or login with your own username.
Information
Members of Guest cannot leave comments.